osu file format v14

[General]
AudioFilename: pokemon.mp3
AudioLeadIn: 1500
PreviewTime: 868
Countdown: 0
SampleSet: Normal
StackLeniency: 0.7
Mode: 1
LetterboxInBreaks: 0
WidescreenStoryboard: 0

[Editor]
DistanceSpacing: 0.8
BeatDivisor: 4
GridSize: 4
TimelineZoom: 0.9

[Metadata]
Title:Shitennou Toujou!
TitleUnicode:四天王登場!
Artist:Go Ichinose
ArtistUnicode:一之瀬 剛
Creator:Charlotte
Version:Futsuu
Source:Pokémon Ruby and Sapphire
Tags:pokemon pocket monsters nintendo 任天堂 game freak ポケットモンスター ルビー・サファイア Irreversible Zetera Okoratu Four's
BeatmapID:748674
BeatmapSetID:338333

[Difficulty]
HPDrainRate:9
CircleSize:5
OverallDifficulty:5
ApproachRate:5
SliderMultiplier:1.4
SliderTickRate:1

[Events]
//Background and Video events
0,0,"BG1.png",0,0
//Break Periods
//Storyboard Layer 0 (Background)
//Storyboard Layer 1 (Fail)
//Storyboard Layer 2 (Pass)
//Storyboard Layer 3 (Foreground)
//Storyboard Sound Samples

[TimingPoints]
868,449.606594230049,4,1,0,72,1,0
15255,-100,4,1,0,72,0,1
22449,-100,4,1,0,72,0,0
36836,-100,4,1,0,72,0,1
38634,-100,4,1,0,50,0,1
40433,-100,4,1,0,40,0,0

[HitObjects]
256,192,868,5,4,0:0:0:0:
256,192,1317,1,0,0:0:0:0:
256,192,1767,1,0,0:0:0:0:
256,192,1992,1,8,0:0:0:0:
256,192,2441,1,8,0:0:0:0:
256,192,2666,1,0,0:0:0:0:
256,192,3116,1,8,0:0:0:0:
256,192,3565,1,0,0:0:0:0:
256,192,3790,1,8,0:0:0:0:
256,192,4464,1,4,0:0:0:0:
256,192,4914,1,0,0:0:0:0:
256,192,5364,1,8,0:0:0:0:
256,192,5588,1,8,0:0:0:0:
256,192,6038,1,8,0:0:0:0:
256,192,6263,1,0,0:0:0:0:
256,192,6712,1,8,0:0:0:0:
256,192,7162,1,0,0:0:0:0:
256,192,7387,1,8,0:0:0:0:
256,192,8061,1,12,0:0:0:0:
256,192,8511,1,0,0:0:0:0:
256,192,8960,1,0,0:0:0:0:
256,192,9185,1,8,0:0:0:0:
256,192,9635,1,8,0:0:0:0:
256,192,9860,1,0,0:0:0:0:
256,192,10309,1,8,0:0:0:0:
256,192,10759,1,0,0:0:0:0:
256,192,10984,1,8,0:0:0:0:
256,192,11658,1,12,0:0:0:0:
256,192,12108,1,0,0:0:0:0:
256,192,12557,1,8,0:0:0:0:
256,192,12782,1,8,0:0:0:0:
256,192,13232,1,8,0:0:0:0:
256,192,13456,1,0,0:0:0:0:
256,192,13906,1,8,0:0:0:0:
256,192,14356,1,0,0:0:0:0:
256,192,14581,1,8,0:0:0:0:
256,192,15255,1,12,0:0:0:0:
256,192,15705,1,8,0:0:0:0:
256,192,16154,1,8,0:0:0:0:
256,192,16604,1,8,0:0:0:0:
256,192,16829,1,0,0:0:0:0:
256,192,17053,1,4,0:0:0:0:
256,192,17503,1,0,0:0:0:0:
256,192,17953,1,0,0:0:0:0:
256,192,18177,1,0,0:0:0:0:
256,192,18402,1,8,0:0:0:0:
256,192,18852,1,12,0:0:0:0:
256,192,19301,1,8,0:0:0:0:
256,192,19751,1,8,0:0:0:0:
256,192,19976,1,8,0:0:0:0:
256,192,20201,1,0,0:0:0:0:
256,192,20650,1,12,0:0:0:0:
256,192,21100,1,0,0:0:0:0:
256,192,21325,1,8,0:0:0:0:
256,192,21549,1,0,0:0:0:0:
256,192,22449,1,4,0:0:0:0:
256,192,22898,1,0,0:0:0:0:
256,192,23348,1,0,0:0:0:0:
256,192,23573,1,8,0:0:0:0:
256,192,24022,1,8,0:0:0:0:
256,192,24247,1,0,0:0:0:0:
256,192,24697,1,8,0:0:0:0:
256,192,25146,1,0,0:0:0:0:
256,192,25371,1,8,0:0:0:0:
256,192,26045,1,4,0:0:0:0:
256,192,26495,1,0,0:0:0:0:
256,192,26945,1,8,0:0:0:0:
256,192,27169,1,8,0:0:0:0:
256,192,27619,1,8,0:0:0:0:
256,192,27844,1,0,0:0:0:0:
256,192,28293,1,8,0:0:0:0:
256,192,28743,1,0,0:0:0:0:
256,192,28968,1,8,0:0:0:0:
256,192,29642,1,12,0:0:0:0:
256,192,30092,1,0,0:0:0:0:
256,192,30542,1,0,0:0:0:0:
256,192,30766,1,8,0:0:0:0:
256,192,31216,1,8,0:0:0:0:
256,192,31441,1,0,0:0:0:0:
256,192,31890,1,8,0:0:0:0:
256,192,32340,1,0,0:0:0:0:
256,192,32565,1,8,0:0:0:0:
256,192,33239,1,12,0:0:0:0:
256,192,33689,1,0,0:0:0:0:
256,192,34138,1,8,0:0:0:0:
256,192,34363,1,8,0:0:0:0:
256,192,34813,1,8,0:0:0:0:
256,192,35037,1,0,0:0:0:0:
256,192,35487,1,8,0:0:0:0:
256,192,35937,1,0,0:0:0:0:
256,192,36162,1,8,0:0:0:0:
256,192,36836,1,12,0:0:0:0:
256,192,37286,1,8,0:0:0:0:
256,192,37735,1,8,0:0:0:0:
256,192,38185,1,8,0:0:0:0:
256,192,38410,1,0,0:0:0:0:
256,192,38634,1,4,0:0:0:0:
256,192,39084,1,0,0:0:0:0:
256,192,39534,1,0,0:0:0:0:
256,192,39758,1,0,0:0:0:0:
256,192,39983,1,8,0:0:0:0:
256,192,40433,1,8,0:0:0:0:
